#TITLE:Hyper Super Powers;
#SUBTITLE:;
#ARTIST:Fastway;
#TITLETRANSLIT:;
#SUBTITLETRANSLIT:;
#ARTISTTRANSLIT:;
#GENRE:;
#CREDIT:;
#BANNER:221.jpg;
#BACKGROUND:;
#LYRICSPATH:;
#CDTITLE:221.jpg;
#MUSIC:hypersuper.mp3;
#OFFSET:0.000;
#SAMPLESTART:41.274;
#SAMPLELENGTH:12.000;
#SELECTABLE:YES;
#BPMS:0.000=157.000,90.000=78.500,98.000=157.000;
#STOPS:;
#DELAYS:;
#TIMESIGNATURES:0.000=4=4
;
#BGCHANGES:;
#KEYSOUNDS:;
#ATTACKS:;
// cache tags:
#FIRSTBEAT:6.000;
#LASTBEAT:201.000;
#SONGFILENAME:/Songs/ParaPara/Hyper Super Powers/Hyper Super Powers.sm;
#HASMUSIC:1;
#HASBANNER:1;
#MUSICLENGTH:84.897;
// end cache tags

//---------------para-single - Blank----------------
#NOTES:
     para-single:
     Blank:
     Beginner:
     1:
     0.231,0.266,0.177,0.141,0.000,110.000,15.000,12.000,0.000,0.000,0.000,0.000,-1.000,-1.000,0.231,0.266,0.177,0.141,0.000,110.000,15.000,12.000,0.000,0.000,0.000,0.000,-1.000,-1.000:
00000
00000
00000
00000
,
00000
00000
00010
01000
,
00000
00000
00010
01000
,
00000
00000
00010
01000
,
00000
00000
00000
00000
01000
00100
00010
00000
,
00010
00100
01000
00000
00010
00000
01000
00000
,
00000
00000
00010
01000
,
00000
00000
00010
01000
,
00000
00000
00000
00000
01000
00100
00010
00000
,
00010
00100
01000
00000
00200
00000
00000
00000
,
00300
00000
00000
00010
,
00000
00000
00010
00000
,
00010
00000
00000
01000
,
00000
00000
01000
00000
,
01000
00000
00000
00010
,
00000
00000
00010
00000
,
00010
00000
00000
01000
,
00000
00000
01000
00000
,
01000
00000
00010
01000
,
00000
00000
02020
03030
,
01010
01010
00020
02000
,
00030
03000
01000
00000
,
01000
00000
01000
00100
,
00010
00000
00100
00000
00000
02020
00000
03030
,
00100
00100
00000
00000
,
00001
00000
10000
00000
00000
00000
00000
10001
,
00000
00000
01000
00010
,
00010
01000
00100
01010
,
00000
01010
01000
00000
,
00010
00000
00000
00000
,
02020
03030
00000
00000
00010
00100
00000
00000
,
01000
00000
00000
00000
01000
00100
00000
00000
,
00010
00000
00000
00000
,
00001
00000
10000
00000
00000
00000
00000
10001
,
00000
00000
01000
00010
,
00010
01000
00100
01010
,
00000
01010
01000
00000
,
00010
00000
00000
00000
,
02020
03030
00000
00000
00000
00000
01010
00000
,
00000
00000
00000
00000
,
10001
00000
00000
10001
,
00100
00000
01000
00010
,
00002
00000
00000
00000
,
00000
00000
00000
00000
,
00000
00000
00000
00000
,
00003
00000
00000
00000
01000
00100
00010
00000
,
00010
00100
01000
00000
00010
00000
01000
00000
,
00000
00000
00010
01000
,
00000
00000
00010
01000
,
00000
00000
00000
00000
01000
00100
00010
00000
,
00010
00100
01000
00000
00000
00000
00000
00000
;
